The Discovery - La Scoperta (2017).H264.Italian.English.Ac3.5.1.iCV-MIRCrew [Isohunt.to]

Size 1.683 GB   311 seeders     Added 2017-04-09 20:54:26

The Discovery - La Scoperta (2017).H264.Italian.English.Ac3.5.1.iCV-MIRCrew

[center]

[color=red][b][img]image[/img]
[u]NO FOUND ONLY ORIGINAL RELEASE[/u]

[img]image[/img]

My release is always in double track audio italian and Original audio
for select it use VLC or dvd player home
not use wmp 

La Scoperta - The Discovery (2017)

[img]http://extraimage.net/images/2017/04/07/5f46b7b3cc6b6f10548d3da4a91c6e7a.png[/img]



[img]image[/img]

    GENERE: Sentimentale, Fantascienza
    ANNO: 2017
    REGIA: Charlie McDowell
    SCENEGGIATURA: Charlie McDowell
    FOTOGRAFIA: Sturla Brandth Grøvlen
    MONTAGGIO: Jennifer Lilly
    MUSICHE: Danny Bensi, Saunder Jurriaans
    PRODUZIONE: Endgame Entertainment, Netflix, Protagonist Pictures
    DISTRIBUZIONE: Netflix
    PAESE: USA

[img]image[/img]

Robert Redford, Rooney Mara, Jason Segel, Riley Keough, Jesse Plemons, Ron Canada, Kateri Demartino

[img]image[/img]

Un anno dopo che l'esistenza dell'aldilà è stata verificata scientificamente, milioni di persone di ogni parte del mondo hanno posto fine alla propria vita per arrivarci. ...............

[img]image[/img]

Writer-director Charlie McDowell returns to Sundance this year with a thriller about a scientist (played by Robert Redford) who uncovers scientific proof that there is indeed an afterlife. His son is portrayed by Jason Segel, who's not too sure about his father's "discovery", and Rooney Mara plays a mystery woman who has her own reasons for wanting to find out more about the afterlife

[img]image[/img]

[img]http://extraimage.net/images/2017/04/09/2b75eab5b02f7b888d3d50e6f3df1fea.png[/img]
[img]http://extraimage.net/images/2017/04/09/236879c97cd63bf8c5c8c2897999563e.png[/img]
[img]http://extraimage.net/images/2017/04/09/3886f67e688ae09a4b125f3099d046cd.png[/img]

[img]image[/img]


[spoiler]
General
Unique ID                                : 43809622046675159425896788193631426601 (0x20F56D21AE9D626531582135358E5829)
Complete name                            : La Scoperta - The Discovery (2017).H264.ita.eng.sub.ita.eng.iCV-MIRCrew.mkv
Format                                   : Matroska
Format version                           : Version 2
File size                                : 1.57 GiB
Duration                                 : 1h 42mn
Overall bit rate                         : 2 191 Kbps
Movie name                               : www.icv-crew.org
Encoded date                             : UTC 2017-04-05 18:27:58
Writing application                      : Lavf54.63.100
Writing library                          : Lavf54.63.100
COPYRIGHT                                : robbyrs

Video
ID                                       : 1
Format                                   : AVC
Format/Info                              : Advanced Video Codec
Format profile                           : [email protected]
Format settings, CABAC                   : Yes
Format settings, ReFrames                : 2 frames
Codec ID                                 : V_MPEG4/ISO/AVC
Duration                                 : 1h 42mn
Bit rate                                 : 1 290 Kbps
Width                                    : 720 pixels
Height                                   : 304 pixels
Display aspect ratio                     : 2.40:1
Frame rate mode                          : Variable
Frame rate                               : 23.976 fps
Color space                              : YUV
Chroma subsampling                       : 4:2:0
Bit depth                                : 8 bits
Scan type                                : Progressive
Bits/(Pixel*Frame)                       : 0.246
Stream size                              : 917 MiB (57%)
Writing library                          : x264 core 130 r2273
Encoding settings                        : cabac=1 / ref=2 / deblock=1:0:0 / analyse=0x1:0x131 / me=hex / subme=7 / psy=1 / psy_rd=1.00:0.00 / mixed_ref=0 / me_range=16 / chroma_me=1 / trellis=1 / 8x8dct=0 / cqm=0 / deadzone=21,11 / fast_pskip=1 / chroma_qp_offset=-2 / threads=12 / lookahead_threads=2 / sliced_threads=0 / nr=0 / decimate=1 / interlaced=0 / bluray_compat=0 / constrained_intra=0 / bframes=3 / b_pyramid=0 / b_adapt=1 / b_bias=0 / direct=3 / weightb=1 / open_gop=0 / weightp=2 / keyint=230 / keyint_min=23 / scenecut=40 / intra_refresh=0 / rc_lookahead=40 / rc=2pass / mbtree=1 / bitrate=1290 / ratetol=1.0 / qcomp=0.60 / qpmin=10 / qpmax=69 / qpstep=4 / cplxblur=20.0 / qblur=0.5 / vbv_maxrate=24000 / vbv_bufsize=24000 / nal_hrd=none / ip_ratio=1.40 / aq=1:1.00
Language                                 : Italian
Default                                  : Yes
Forced                                   : No
DURATION                                 : 01:42:22.804000000
NUMBER_OF_FRAMES                         : 147280
NUMBER_OF_BYTES                          : 7449434703
_STATISTICS_WRITING_APP                  : mkvmerge v8.7.0 ('All of the above') 64bit
_STATISTICS_WRITING_DATE_UTC             : 2017-04-03 13:49:11
_STATISTICS_TAGS                         : BPS DURATION NUMBER_OF_FRAMES NUMBER_OF_BYTES

Audio #1
ID                                       : 2
Format                                   : AC-3
Format/Info                              : Audio Coding 3
Mode extension                           : CM (complete main)
Codec ID                                 : A_AC3
Duration                                 : 1h 42mn
Bit rate mode                            : Constant
Bit rate                                 : 448 Kbps
Channel(s)                               : 6 channels
Channel positions                        : Front: L C R, Side: L R, LFE
Sampling rate                            : 48.0 KHz
Bit depth                                : 16 bits
Compression mode                         : Lossy
Delay relative to video                  : 1mn 5s
Stream size                              : 328 MiB (20%)
Title                                    : AC3 ITA
Language                                 : Italian
Default                                  : Yes
Forced                                   : No
DURATION                                 : 01:42:22.752000000
NUMBER_OF_FRAMES                         : 191961
NUMBER_OF_BYTES                          : 343994112
_STATISTICS_WRITING_APP                  : mkvmerge v8.7.0 ('All of the above') 64bit
_STATISTICS_WRITING_DATE_UTC             : 2017-04-03 13:49:11
_STATISTICS_TAGS                         : BPS DURATION NUMBER_OF_FRAMES NUMBER_OF_BYTES

Audio #2
ID                                       : 3
Format                                   : AC-3
Format/Info                              : Audio Coding 3
Mode extension                           : CM (complete main)
Codec ID                                 : A_AC3
Duration                                 : 1h 42mn
Bit rate mode                            : Constant
Bit rate                                 : 448 Kbps
Channel(s)                               : 6 channels
Channel positions                        : Front: L C R, Side: L R, LFE
Sampling rate                            : 48.0 KHz
Bit depth                                : 16 bits
Compression mode                         : Lossy
Delay relative to video                  : 1mn 5s
Stream size                              : 328 MiB (20%)
Title                                    : AC3 ENG
Language                                 : English
Default                                  : No
Forced                                   : No
DURATION                                 : 01:42:22.752000000
NUMBER_OF_FRAMES                         : 191961
NUMBER_OF_BYTES                          : 491420160
_STATISTICS_WRITING_APP                  : mkvmerge v8.7.0 ('All of the above') 64bit
_STATISTICS_WRITING_DATE_UTC             : 2017-04-03 13:49:11
_STATISTICS_TAGS                         : BPS DURATION NUMBER_OF_FRAMES NUMBER_OF_BYTES

Text #1
ID                                       : 4
Format                                   : ASS
Codec ID                                 : S_TEXT/ASS
Codec ID/Info                            : Advanced Sub Station Alpha
Compression mode                         : Lossless
Title                                    : FORCED
Language                                 : Italian
Default                                  : Yes
Forced                                   : No
DURATION                                 : 01:41:35.465000000
NUMBER_OF_FRAMES                         : 10
NUMBER_OF_BYTES                          : 278
_STATISTICS_WRITING_APP                  : mkvmerge v8.7.0 ('All of the above') 64bit
_STATISTICS_WRITING_DATE_UTC             : 2017-04-03 13:49:11
_STATISTICS_TAGS                         : BPS DURATION NUMBER_OF_FRAMES NUMBER_OF_BYTES

Text #2
ID                                       : 5
Format                                   : ASS
Codec ID                                 : S_TEXT/ASS
Codec ID/Info                            : Advanced Sub Station Alpha
Compression mode                         : Lossless
Title                                    : REGULAR
Language                                 : Italian
Default                                  : No
Forced                                   : No
DURATION                                 : 01:41:40.470000000
NUMBER_OF_FRAMES                         : 1089
NUMBER_OF_BYTES                          : 43169
_STATISTICS_WRITING_APP                  : mkvmerge v8.7.0 ('All of the above') 64bit
_STATISTICS_WRITING_DATE_UTC             : 2017-04-03 13:49:11
_STATISTICS_TAGS                         : BPS DURATION NUMBER_OF_FRAMES NUMBER_OF_BYTES

Text #3
ID                                       : 6
Format                                   : ASS
Codec ID                                 : S_TEXT/ASS
Codec ID/Info                            : Advanced Sub Station Alpha
Compression mode                         : Lossless
Title                                    : NON UDENTI
Language                                 : English
Default                                  : No
Forced                                   : No
DURATION                                 : 01:41:08.438000000
NUMBER_OF_FRAMES                         : 1204
NUMBER_OF_BYTES                          : 46668
_STATISTICS_WRITING_APP                  : mkvmerge v8.7.0 ('All of the above') 64bit
_STATISTICS_WRITING_DATE_UTC             : 2017-04-03 13:49:11
_STATISTICS_TAGS                         : BPS DURATION NUMBER_OF_FRAMES NUMBER_OF_BYTES

Menu
00:00:00.000                             : :00:00:00.000
00:07:05.342                             : :00:07:05.342
00:14:28.201                             : :00:14:28.201
00:20:13.838                             : :00:20:13.838
00:29:27.099                             : :00:29:27.099
00:39:02.590                             : :00:39:02.590
00:50:56.804                             : :00:50:56.804
00:59:52.756                             : :00:59:52.756
01:08:53.129                             : :01:08:53.129
01:16:19.950                             : :01:16:19.950
01:25:27.706                             : :01:25:27.706
01:35:23.259                             : :01:35:23.259


[/spoiler]

[/color][/b][/center]
La Scoperta - The Discovery (2017).H264.ita.eng.sub.ita.eng.iCV-MIRCrew.mkv 1.683 GB
Gathering some info...

Register and log in Isohunt and see no captcha anymore!

4000 symbols left
Hash f5937f82a126c104de06fd74200291fef3fcdde9